Форумы Серверы Суспільство
Игры Серверы VBIOS General Soft & Hard Увлечения А поговорить... Культура Полезная информация Межигір'я Чат

Пользователь Сообщение: F.uck Mimimal by Karkusha        (Тема#16057)
Karkusha 
Белая ворона
Karkusha
Возраст: 41
: Kiev
С нами с 22.05.01
Посты: 8380
09.08.07 23:36 Ukraine #290230
http://uafile.com/779360 - качаем

01_james_zabiela_and_nic_fanciulli-rover_(original_mix)-scratch.mp3
02_nu_frequency_-_buy_me_(dub_mix)
03_olivier_giacomotto_-_glitter_queen_-_original_vocal
04_eddie_cumana_and_stuart_bridges_feat_eva_-_new_york_city_13th_street_(d-lav_vocal_mix)
05_punch_exciters_-_dance_of_the_fire_(punch_exciters_club_dub_mix)
06_dj_dan-needle_damage_(dj_dans_original)
07_michal_poliak-world_republic_ep_(filterheadz_remix)
08_juce_-_move_on_(original_mix)
09_lustral_-_everytime_(shifter_and_carvell_remix)

Продолжительность 50 мин 55 сек.

Имел я минимал в виду так сказать!


PS Привет Ярику и Марине!
Slotos 
подполковник
Slotos
Возраст: 34
: nirvana
С нами с 17.10.02
Посты: 4025
10.08.07 00:26 [Re: Karkusha] Ukraine #290231
А cue можно? =)
Karkusha 
Белая ворона
Karkusha
Возраст: 41
: Kiev
С нами с 22.05.01
Посты: 8380
10.08.07 00:38 [Re: Slotos] Ukraine #290232
))) я ни разу его не делал

не шарю )))
Slotos 
подполковник
Slotos
Возраст: 34
: nirvana
С нами с 17.10.02
Посты: 4025
10.08.07 02:08 [Re: Karkusha] Ukraine #290233
http://www.frontleft.com/cue/

А микс папский. Дота на ура пошла =)
Karkusha 
Белая ворона
Karkusha
Возраст: 41
: Kiev
С нами с 22.05.01
Посты: 8380
10.08.07 13:28 [Re: Slotos] Ukraine #290234
Получай
Slotos 
подполковник
Slotos
Возраст: 34
: nirvana
С нами с 17.10.02
Посты: 4025
10.08.07 19:38 [Re: Karkusha] Ukraine #290235
Данке шон =)
concert.com 
Gunter
concert.com
Возраст: 36
: Киев
С нами с 24.12.05
Посты: 6826
10.08.07 19:44 [Re: Slotos] Ukraine #290236
ого красавчик Карг. респект.
Karkusha 
Белая ворона
Karkusha
Возраст: 41
: Kiev
С нами с 22.05.01
Посты: 8380
10.08.07 22:10 [Re: Slotos] Ukraine #290237
Цитата:

Данке шон =)




там я немного неправильно разобрался .. вот правильный кью
Slotos 
подполковник
Slotos
Возраст: 34
: nirvana
С нами с 17.10.02
Посты: 4025
12.08.07 13:46 [Re: Karkusha] Ukraine #290238
Я так понимаю, что правильно будет так:
Code:
PERFORMER "Karkusha"
TITLE "[censored] Mimimal by Karkusha"
FILE "Fuck_Minimal_by_Karkusha.mp3" MP3
TRACK 01 AUDIO
TITLE "rover_(original_mix)-scratch.mp3"
PERFORMER "james_zabiela_and_nic_fanciulli"
INDEX 01 00:00:00
TRACK 02 AUDIO
TITLE "buy_me_(dub_mix)"
PERFORMER "nu_frequency"
INDEX 01 06:00:00
TRACK 03 AUDIO
TITLE "glitter_queen_-_original_vocal"
PERFORMER "olivier_giacomotto"
INDEX 01 09:40:00
TRACK 04 AUDIO
TITLE "new_york_city_13th_street_(d-lav_vocal_mix)"
PERFORMER "eddie_cumana_and_stuart_bridges_feat_eva"
INDEX 01 14:17:00
TRACK 05 AUDIO
TITLE "dance_of_the_fire_(punch_exciters_club_dub_mix)"
PERFORMER "punch_exciters"
INDEX 01 20:00:00
TRACK 06 AUDIO
TITLE "needle_damage_(dj_dans_original)"
PERFORMER "dj_dan"
INDEX 01 25:15:00
TRACK 07 AUDIO
TITLE "world_republic_ep_(filterheadz_remix)"
PERFORMER "michal_poliak"
INDEX 01 29:00:00
TRACK 08 AUDIO
TITLE "move_on_(original_mix)"
PERFORMER "juce"
INDEX 01 34:50:00
TRACK 09 AUDIO
TITLE "everytime_(shifter_and_carvell_remix)"
PERFORMER "lustral"
INDEX 01 43:40:00

Karkusha 
Белая ворона
Karkusha
Возраст: 41
: Kiev
С нами с 22.05.01
Посты: 8380
12.08.07 14:14 [Re: Slotos] Ukraine #290239
aga
Slotos 
подполковник
Slotos
Возраст: 34
: nirvana
С нами с 17.10.02
Посты: 4025
12.08.07 23:11 [Re: Karkusha] Ukraine #290240
Запихнул в mka, храню для потомков =)
Icon Legend Права Настройки темы
Распечатать тему


915 Просмотры
Реклама
132 сейчас в онлайне
7 пользователей (Silent Dude, Hac9lJlbHuKe, youradultworld, eosuitergilb, Евлампий Петрович) и 4 скрытых, а также 121 гостей сейчас онлайн.
     
VBIOS Version 3.0 FINAL | ©1999-2020
Execution time: 0.069 seconds.   Total Queries: 54   Zlib сжатие вкл.
All times are (GMT+3). Current time is 11:03
Top